Zoo Wars 2018 Movies HDRip x264 AAC with Sample ☻rDX☻

  • Category Movies
  • Type HD
  • Language English
  • Total size 705.4 MB
  • Uploaded By nehalpuja
  • Downloads 77
  • Last checked 1 hour ago
  • Date uploaded 6 hours ago
  • Seeders 0
  • Leechers 44

Infohash : 846BB9452FB7F4543F415DA0A42B8479FBCE7C13

Zoo Wars 2018 Movies HDRip x264 AAC with Sample ☻rDX☻
===============================================================================================

SCREEN SHOTS:



or

http://iphonehosting.eu/2018/10/savings/1.html

File size : 696 MiB
Duration : 1 h 10 min
Overall bit rate mode : Constant
Overall bit rate : 1 390 kb/s
Movie name : Zoo Wars 2018 Movies HDRip x264 AAC ☻rDX☻

Video
ID : 2
Format : AVC
Format/Info : Advanced Video Codec
Format profile : [email protected]
Format settings, CABAC : Yes
Format settings, ReFrames : 2 frames
Format settings, GOP : M=1, N=12
Codec ID : V_MPEG4/ISO/AVC
Duration : 1 h 10 min
Bit rate mode : Constant
Bit rate : 1 327 kb/s
Width : 720 pixels
Height : 400 pixels
Display aspect ratio : 16:9
Frame rate mode : Constant
Frame rate : 23.976 (24000/1001) FPS
Color space : YUV
Chroma subsampling : 4:2:0
Bit depth : 8 bits
Scan type : Progressive
Bits/(Pixel*Frame) : 0.192
Stream size : 650 MiB (93%)
Title : ☻rDX☻
Default : Yes
Forced : No

Audio
ID : 1
Format : MPEG Audio
Format version : Version 1
Format profile : Layer 3
Mode : Joint stereo
Mode extension : MS Stereo
Codec ID : A_MPEG/L3
Codec ID/Hint : MP3
Duration : 1 h 10 min
Bit rate mode : Constant
Bit rate : 64.0 kb/s
Channel(s) : 2 channels
Sampling rate : 44.1 kHz
Compression mode : Lossy
Stream size : 32.1 MiB (5%)
Title : ☻rDX☻
Default : Yes
Forced : No

http://www.imdb.com/title/tt7575410

Files:

Zoo Wars 2018 Movies HDRip x264 AAC with Sample ☻rDX☻
  • Sample ~ Zoo Wars 2018 Movies HDRip x264 AAC ☻rDX☻.mkv (9.0 MB)
  • Zoo Wars 2018 Movies HDRip x264 AAC ☻rDX☻.mkv (696.4 MB)

There are currently no comments. Feel free to leave one :)

Code:

  • udp://tracker.coppersurfer.tk:6969/announce
  • udp://tracker.leechers-paradise.org:6969/announce
  • udp://tracker.pirateparty.gr:6969/announce
  • udp://eddie4.nl:6969/announce
  • udp://tracker.zer0day.to:1337/announce
  • udp://9.rarbg.me:2710/announce
  • udp://9.rarbg.to:2710/announce
  • udp://public.popcorn-tracker.org:6969/announce
  • udp://p4p.arenabg.ch:1337/announce
  • udp://tracker.vanitycore.co:6969/announce
  • udp://ipv4.tracker.harry.lu:80/announce
  • udp://tracker.opentrackr.org:1337/announce
  • udp://p4p.arenabg.com:1337/announce
  • udp://shadowshq.yi.org:6969/announce
Sitemapمشاهدة وتحميل فيلم Fantastic Beasts 2 2018 اونلاين | Укрась прощальное утро цветами обещания / Sayonara no Asa ni Yakusoku no Hana o Kazarou / Maquia: When the Promised Flower Blooms (2018) HDRip от Scarabey | iTunes | James Garrett