18+ Space Babes From Outer Space 2018 UNCENSORED Movies BRRip x26...

  • Category Movies
  • Type h.264/x264
  • Language English
  • Total size 705.3 MB
  • Uploaded By nehalpuja
  • Downloads 315
  • Last checked 1 hour ago
  • Date uploaded 7 hours ago
  • Seeders 1
  • Leechers 105

Infohash : 1F185A00E1955D15EB502E89CD02DC6A5E4B923A

18+ Space Babes From Outer Space 2018 UNCENSORED Movies BRRip x264 AAC with Sample ☻rDX☻
===============================================================================================

SCREEN SHOTS:



or

http://iphonehosting.eu/2018/10/selling/1.html

File size : 691 MiB
Duration : 1 h 21 min
Overall bit rate mode : Constant
Overall bit rate : 1 184 kb/s
Movie name : 18+ Space Babes From Outer Space 2018 UNCENSORED Movies BRRip x264 AAC ☻rDX☻

Video
ID : 2
Format : AVC
Format/Info : Advanced Video Codec
Format profile : [email protected]
Format settings, CABAC : Yes
Format settings, ReFrames : 2 frames
Format settings, GOP : M=1, N=12
Codec ID : V_MPEG4/ISO/AVC
Duration : 1 h 21 min
Bit rate mode : Constant
Bit rate : 1 121 kb/s
Width : 720 pixels
Height : 304 pixels
Display aspect ratio : 2.35:1
Frame rate mode : Constant
Frame rate : 23.976 FPS
Color space : YUV
Chroma subsampling : 4:2:0
Bit depth : 8 bits
Scan type : Progressive
Bits/(Pixel*Frame) : 0.214
Stream size : 640 MiB (93%)
Title : ☻rDX☻
Default : Yes
Forced : No

Audio
ID : 1
Format : MPEG Audio
Format version : Version 1
Format profile : Layer 3
Mode : Joint stereo
Mode extension : MS Stereo
Codec ID : A_MPEG/L3
Codec ID/Hint : MP3
Duration : 1 h 21 min
Bit rate mode : Constant
Bit rate : 64.0 kb/s
Channel(s) : 2 channels
Sampling rate : 44.1 kHz
Compression mode : Lossy
Stream size : 37.4 MiB (5%)
Title : ☻rDX☻
Default : Yes
Forced : No

http://www.imdb.com/title/tt6644286

Files:

18+ Space Babes From Outer Space 2018 UNCENSORED Movies BRRip x264 AAC with Sample ☻rDX☻
  • Sample ~ 18+ Space Babes From Outer Space 2018 UNCENSORED Movies BRRip x264 AAC ☻rDX☻.mkv (14.0 MB)
  • 18+ Space Babes From Outer Space 2018 UNCENSORED Movies BRRip x264 AAC ☻rDX☻.mkv (691.3 MB)

There are currently no comments. Feel free to leave one :)

Code:

  • udp://tracker.coppersurfer.tk:6969/announce
  • udp://tracker.leechers-paradise.org:6969/announce
  • udp://tracker.pirateparty.gr:6969/announce
  • udp://eddie4.nl:6969/announce
  • udp://tracker.zer0day.to:1337/announce
  • udp://9.rarbg.me:2710/announce
  • udp://9.rarbg.to:2710/announce
  • udp://public.popcorn-tracker.org:6969/announce
  • udp://p4p.arenabg.ch:1337/announce
  • udp://tracker.vanitycore.co:6969/announce
  • udp://ipv4.tracker.harry.lu:80/announce
  • udp://tracker.opentrackr.org:1337/announce
  • udp://p4p.arenabg.com:1337/announce
  • udp://shadowshq.yi.org:6969/announce
SitemapWatch Movie | Bare Minerals Original Foundation SPF15 8g MEDIUM BEIGE TAN FAIRLY LIGHT MEDIUM | Disney / Buena Vista