L7 (2018) 720p Hindi Dubbed WEBHD x264 AAC 900MB [MovCr]

  • Category Movies
  • Type Dubs/Dual Audio
  • Language Hindi
  • Total size 920.5 MB
  • Uploaded By ictv
  • Downloads 115
  • Last checked 36 minutes ago
  • Date uploaded 2 hours ago
  • Seeders 6
  • Leechers 31

Infohash : 8BB78DA3F3B101411D37E95ABA36B40803C61162

Our Site http://movcr.cc

L7 (2018) 720p Hindi Dubbed WEBHD x264 AAC 900MB [MovCr]



http://www.imdb.com/title/tt6173444/




General
Unique ID : 68362177759340456214166597194580883766 (0x336E1396E1BE3418C593FD6E7229F936)
Complete name : www.MovCr.cc - L7 (2018) 720p Hindi Dubbed WEBHD x264 AAC 900MB [MovCr].mkv
Format : Matroska
Format version : Version 4 / Version 2
File size : 921 MiB
Duration : 1 h 46 min
Overall bit rate : 1 203 kb/s
Movie name : www.MovCr.cc
Encoded date : UTC 2018-10-10 19:05:43
Writing application : mkvmerge v26.0.0 ('In The Game') 64-bit
Writing library : libebml v1.3.6 + libmatroska v1.4.9

Video
ID : 1
Format : AVC
Format/Info : Advanced Video Codec
Format profile : [email protected]
Format settings : CABAC / 3 Ref Frames
Format settings, CABAC : Yes
Format settings, RefFrames : 3 frames
Codec ID : V_MPEG4/ISO/AVC
Duration : 1 h 46 min
Bit rate : 1 075 kb/s
Width : 1 280 pixels
Height : 720 pixels
Display aspect ratio : 16:9
Frame rate mode : Constant
Frame rate : 25.000 FPS
Color space : YUV
Chroma subsampling : 4:2:0
Bit depth : 8 bits
Scan type : Progressive
Bits/(Pixel*Frame) : 0.047
Stream size : 823 MiB (89%)
Title : www.MovCr.cc
Default : Yes
Forced : No
Color range : Limited
Color primaries : BT.709
Transfer characteristics : BT.709
Matrix coefficients : BT.709

Audio
ID : 2
Format : AAC
Format/Info : Advanced Audio Codec
Format profile : LC
Codec ID : A_AAC-2
Duration : 1 h 46 min
Bit rate : 126 kb/s
Channel(s) : 2 channels
Channel positions : Front: L R
Sampling rate : 44.1 kHz
Frame rate : 43.066 FPS (1024 SPF)
Compression mode : Lossy
Stream size : 96.1 MiB (10%)
Title : www.MovCr.cc
Language : Hindi
Default : Yes
Forced : No









Files:

  • www.MovCr.cc - L7 (2018) 720p Hindi Dubbed WEBHD x264 AAC 900MB [MovCr].mkv (920.5 MB)

There are currently no comments. Feel free to leave one :)

Code:

  • udp://tracker.coppersurfer.tk:6969/announce
  • udp://tracker.opentrackr.org:1337/announce
  • udp://tracker.leechers-paradise.org:6969/announce
  • udp://9.rarbg.to:2800/announce
  • udp://9.rarbg.to:2800/announce
  • udp://eddie4.nl:6969/announce
  • udp://9.rarbg.to:2800/announce
  • udp://9.rarbg.to:2800/announce
  • udp://tracker.doko.moe:6969/announce
  • udp://tracker.doko.moe:6969/announce
  • udp://thetracker.org:80/announce
  • udp://thetracker.org:80/announce
  • udp://bt.xxx-tracker.com:2710/announce
  • udp://bt.xxx-tracker.com:2710/announce
  • udp://tracker.vanitycore.co:6969/announce
  • udp://tracker.vanitycore.co:6969/announce
  • udp://tracker.tiny-vps.com:6969/announce
  • udp://tracker.leechers-paradise.org:6969/announce
  • udp://tracker.tiny-vps.com:6969/announce
  • udp://tracker.opentrackr.org:1337/announce
  • udp://tracker.coppersurfer.tk:6969/announce
  • udp://open.stealth.si:80/announce
  • udp://tracker.leechers-paradise.org:6969/announce
  • udp://inferno.demonoid.pw:3418/announce
  • udp://tracker.opentrackr.org:1337/announce
  • udp://retracker.lanta-net.ru:2710/announce
  • udp://peerfect.org:6969/announce
  • udp://tracker.coppersurfer.tk:6969/announce
  • udp://tracker.swateam.org.uk:2710/announce
  • udp://open.stealth.si:80/announce
  • udp://inferno.demonoid.pw:3418/announce
  • udp://retracker.lanta-net.ru:2710/announce
  • udp://peerfect.org:6969/announce
  • udp://tracker.swateam.org.uk:2710/announce
Sitemap2 12 2012-03-11The Walking Dead - Better Angels | Regal Academy | Chillhop Raw Cuts Jazzy Lofi Instrumental Hip Hop Mix Mp3