The.Predator.2018.NEW.HDCam.XviD.B4ND1T69

  • Category Movies
  • Type Divx/Xvid
  • Language English
  • Total size 1.2 GB
  • Uploaded By B4ND1T69
  • Downloads 45
  • Last checked 8 minutes ago
  • Date uploaded 1 hour ago
  • Seeders 14
  • Leechers 34

The Predator

HorrorScience FictionActionAdventure

From the outer reaches of space to the small-town streets of suburbia, the hunt comes home. Now, the universe’s most lethal hunters are stronger, smarter and deadlier than ever before, having genetically upgraded themselves with DNA from other species. When a young boy accidentally triggers their return to Earth, only a ragtag crew of ex-soldiers and a disgruntled science teacher can prevent the end of the human race.

Infohash : B97E06F02232B370F84D829BDDF8E22B7A5B958F

The.Predator.2018.NEW.HDCam.XviD.B4ND1T69



Director: Shane Black
Writers: Fred Dekker, Shane Black
Stars: Boyd Holbrook, Trevante Rhodes, Jacob Tremblay

Plot/Story:
When a young boy accidentally triggers the universe's most lethal hunters' return to Earth, only a ragtag crew of ex-soldiers and a disgruntled science teacher can prevent the end of the human race.

Notes:
Clean print, full screen, NO adverts or floating stuff.

General
Complete name               : The.Predator.2018.NEW.HDCam.XviD.B4ND1T69.avi
Format                      : AVI
Format/Info                 : Audio Video Interleave
File size                   : 1.19 GiB
Duration                    : 1 h 41 min
Overall bit rate            : 1 678 kb/s
Source                      : NEW 720p HDCAM-24HD...thanks.
Sample                      : Yes...Included(2)

Video
ID                          : 0
Format                      : MPEG-4 Visual
Format profile              : Advanced [email protected]
Format settings, BVOP       : 2
Format settings, QPel       : No
Format settings, GMC        : No warppoints
Format settings, Matrix     : Default (H.263)
Codec ID                    : XVID
Codec ID/Hint               : XviD
Duration                    : 1 h 41 min
Bit rate                    : 1 536 kb/s
Width                       : 720 pixels
Height                      : 296 pixels
Display aspect ratio        : 2.40:1
Frame rate                  : 30.000 FPS
Color space                 : YUV
Chroma subsampling          : 4:2:0
Bit depth                   : 8 bits
Scan type                   : Progressive
Compression mode            : Lossy
Bits/(Pixel*Frame)          : 0.240
Stream size                 : 1.09 GiB (92%)
Writing library             : XviD 64

Audio
ID                          : 1
Format                      : MPEG Audio
Format version              : Version 1
Format profile              : Layer 3
Codec ID                    : 55
Codec ID/Hint               : MP3
Duration                    : 1 h 41 min
Bit rate mode               : Constant
Bit rate                    : 128 kb/s
Channel(s)                  : 2 channels
Sampling rate               : 48.0 kHz
Compression mode            : Lossy
Stream size                 : 92.9 MiB (8%)
Alignment                   : Aligned on interleaves
Interleave, duration        : 24  ms (0.72 video frame)

Screenshots:











Please Seed For As Long As Possible
Or At Least 1:1 Ratio...Thanks
Enjoy Peeps


Files:

The.Predator.2018.NEW.HDCam.XviD.B4ND1T69
  • 1337x text file.txt (0.1 KB)
  • Downloaded from katcr.co.txt (0.1 KB)
  • Seeded by Seedplease SeedBoxes.txt (0.2 KB)
  • Sample.2.avi (10.9 MB)
  • Sample.1.avi (19.8 MB)
  • The.Predator.2018.NEW.HDCam.XviD.B4ND1T69.avi (1.2 GB)

There are currently no comments. Feel free to leave one :)

Code:

  • udp://tracker.coppersurfer.tk:6969/announce
  • udp://tracker.coppersurfer.tk:80/announce
  • udp://p4p.arenabg.com:1337/announce
  • udp://tracker.leechers-paradise.org:6969/announce
  • udp://tracker.opentrackr.org:1337/announce
  • udp://explodie.org:6969/announce
  • udp://tracker.pirateparty.gr:6969/announce
  • udp://eddie4.nl:6969/announce
SitemapIs It Wrong To Expect A Hot Spring In A Dungeon?! OVA English Dubbed | A csábítás földjén | مسلسلات تركى 11 دراما HD مشاهدة وتحميل مسلسل الدراما التركي لتر دموع Bir Litre Gözyasi 2018 الموسم الاول مترجم اون...