Mission Impossible Fallout 2018 720p HC HDRip x264 Dual Audio [Hi...

  • Category Movies
  • Type Dubs/Dual Audio
  • Language Hindi
  • Total size 1.5 GB
  • Uploaded By moviezworldz
  • Downloads 150
  • Last checked 6 minutes ago
  • Date uploaded 33 minutes ago
  • Seeders 3
  • Leechers 48

Mission: Impossible - Fallout

AdventureActionThriller

When an IMF mission ends badly, the world is faced with dire consequences. As Ethan Hunt takes it upon himself to fulfil his original briefing, the CIA begin to question his loyalty and his motives. The IMF team find themselves in a race against time, hunted by assassins while trying to prevent a global catastrophe.

Infohash : C5C2356CC2F465A8C021FF84018F00D6C6EAF976





General
Format : Matroska
Format version : Version 4 / Version 2
File size : 1.47 GiB
Duration : 2 h 27 min
Overall bit rate : 1 431 kb/s

Video
ID : 1
Format : AVC
Format/Info : Advanced Video Codec
Format profile : [email protected]
Format settings : CABAC / 4 Ref Frames
Format settings, CABAC : Yes
Format settings, RefFrames : 4 frames
Codec ID : V_MPEG4/ISO/AVC
Duration : 2 h 27 min
Bit rate : 1 200 kb/s
Width : 1 280 pixels
Height : 536 pixels
Display aspect ratio : 2.40:1
Frame rate mode : Constant
Frame rate : 29.970 (30000/1001) FPS
Color space : YUV
Chroma subsampling : 4:2:0
Bit depth : 8 bits
Scan type : Progressive
Bits/(Pixel*Frame) : 0.058
Stream size : 1.20 GiB (82%)
Writing library : x264 core 155 r2901 7d0ff22
Default : Yes
Forced : No

Audio #1
ID : 2
Format : AAC
Format/Info : Advanced Audio Codec
Format profile : LC
Codec ID : A_AAC-2
Duration : 2 h 27 min
Bit rate : 128 kb/s
Channel(s) : 2 channels
Channel positions : Front: L R
Sampling rate : 48.0 kHz
Frame rate : 46.875 FPS (1024 SPF)
Compression mode : Lossy
Stream size : 135 MiB (9%)
Language : Hindi
Default : Yes
Forced : No

Audio #2
ID : 3
Format : AAC
Format/Info : Advanced Audio Codec
Format profile : LC
Codec ID : A_AAC-2
Duration : 2 h 27 min
Bit rate : 128 kb/s
Channel(s) : 2 channels
Channel positions : Front: L R
Sampling rate : 48.0 kHz
Frame rate : 46.875 FPS (1024 SPF)
Compression mode : Lossy
Delay relative to video : 132 ms
Stream size : 135 MiB (9%)
Language : English
Default : No
Forced : No


Click To Enlarge Image








Files:

Mission Impossible Fallout 2018 720p HC HDRip x264 Dual Audio [Hindi - English] [MW]
  • Mission Impossible Fallout 2018 720p HC HDRip x264 Dual Audio [Hindi - English] [MW].mkv (1.5 GB)

There are currently no comments. Feel free to leave one :)

Code:

  • udp://tracker.coppersurfer.tk:6969/announce
  • udp://tracker.pirateparty.gr:6969/announce
  • udp://tracker.coppersurfer.tk:6969/announce
  • udp://tracker.leechers-paradise.org:6969/announce
  • udp://eddie4.nl:6969/announce
  • udp://tracker.tiny-vps.com:6969/announce
  • udp://9.rarbg.me:2800/announce
  • udp://9.rarbg.to:2720/announce
  • udp://public.popcorn-tracker.org:6969/announce
  • udp://open.stealth.si:80/announce
  • udp://tracker.vanitycore.co:6969/announce
  • udp://tracker.opentrackr.org:1337/announce
  • udp://bt.firebit.co.uk:6969/announce
  • udp://shadowshq.yi.org:6969/announce
SitemapComputer and Philippines Inc. - 5708 Words | Скачать | importance of education - 496 Words