The Coin Locker | Adewale Akinnuoye-Agbaje | Tuba1221

Skyscraper 2018 720p HC HDRip x264 [MW]

  • Category Movies
  • Type HD
  • Language English
  • Total size 892.5 MB
  • Uploaded By moviezworldz
  • Downloads 199
  • Last checked 21 minutes ago
  • Date uploaded 4 days ago
  • Seeders 171
  • Leechers 473

Skyscraper

ActionThrillerDrama

Framed and on the run, a former FBI agent must save his family from a blazing fire in the world's tallest building.

Infohash : 03DD00B6FE55CDFC01C719350843295B1228DF3F





General
Format : Matroska
Format version : Version 4 / Version 2
File size : 892 MiB
Duration : 1 h 42 min
Overall bit rate : 1 218 kb/s

Video
ID : 1
Format : AVC
Format/Info : Advanced Video Codec
Format profile : [email protected]
Format settings : CABAC / 4 Ref Frames
Format settings, CABAC : Yes
Format settings, RefFrames : 4 frames
Codec ID : V_MPEG4/ISO/AVC
Duration : 1 h 42 min
Bit rate : 1 000 kb/s
Width : 1 280 pixels
Height : 536 pixels
Display aspect ratio : 2.40:1
Frame rate mode : Constant
Frame rate : 30.000 FPS
Color space : YUV
Chroma subsampling : 4:2:0
Bit depth : 8 bits
Scan type : Progressive
Bits/(Pixel*Frame) : 0.049
Stream size : 726 MiB (81%)
Writing library : x264 core 155 r2901 7d0ff22
Default : Yes
Forced : No

Audio
ID : 2
Format : AAC
Format/Info : Advanced Audio Codec
Format profile : LC
Codec ID : A_AAC-2
Duration : 1 h 42 min
Bit rate : 225 kb/s
Channel(s) : 2 channels
Channel positions : Front: L R
Sampling rate : 48.0 kHz
Frame rate : 46.875 FPS (1024 SPF)
Compression mode : Lossy
Stream size : 165 MiB (18%)
Language : English
Default : Yes
Forced : No


Click To Enlarge Image








Files:

Skyscaper 2018 720p HC HDRip x264 [MW]
  • Skyscaper 2018 720p HC HDRip x264 [MW].mkv (892.5 MB)

There are currently no comments. Feel free to leave one :)

Code:

  • udp://tracker.coppersurfer.tk:6969/announce
  • udp://tracker.pirateparty.gr:6969/announce
  • udp://tracker.coppersurfer.tk:6969/announce
  • udp://tracker.leechers-paradise.org:6969/announce
  • udp://eddie4.nl:6969/announce
  • udp://tracker.tiny-vps.com:6969/announce
  • udp://9.rarbg.me:2800/announce
  • udp://9.rarbg.to:2720/announce
  • udp://public.popcorn-tracker.org:6969/announce
  • udp://open.stealth.si:80/announce
  • udp://tracker.vanitycore.co:6969/announce
  • udp://tracker.opentrackr.org:1337/announce
  • udp://bt.firebit.co.uk:6969/announce
  • udp://shadowshq.yi.org:6969/announce