Mit Schirm Charme Melone (12) | Super Baldi's Basics FULL GAME 2 | Scott Eastwoo...

Thamizh Padam 2 (2018) Tamil - HDRip - x264 - 700MB - Mp3 - ESub...

  • Category Movies
  • Type HD
  • Language Tamil
  • Total size 709.1 MB
  • Uploaded By MovCr
  • Downloads 945
  • Last checked 29 minutes ago
  • Date uploaded 4 days ago
  • Seeders 8
  • Leechers 0

Infohash : C8B9AAD964A895B0711503FB1F06E04E76629870

http://movcr.com

Thamizh Padam 2 (2018) Tamil - HDRip - x264 - 700MB - Mp3 - ESubs - MovCr


General
Unique ID : 227744286390532945355848657974393270055 (0xAB55F43EBC3534B6BDE48309DBCF6F27)
Complete name : D:\[MovCr.com] - Thamizh Padam 2 (2018) Tamil - HDRip - x264 - 700MB - Mp3 - ESubs - MovCr.mkv
Format : Matroska
Format version : Version 4 / Version 2
File size : 709 MiB
Duration : 2 h 23 min
Overall bit rate : 690 kb/s
Movie name : www.MovCr.com
Encoded date : UTC 2018-08-11 05:48:51
Writing application : mkvmerge v11.0.0 ('Alive') 32bit
Writing library : libebml v1.3.4 + libmatroska v1.4.5

Video
ID : 1
Format : AVC
Format/Info : Advanced Video Codec
Format profile : [email protected]
Format settings : CABAC / 4 Ref Frames
Format settings, CABAC : Yes
Format settings, ReFrames : 4 frames
Codec ID : V_MPEG4/ISO/AVC
Duration : 2 h 23 min
Bit rate : 592 kb/s
Width : 720 pixels
Height : 312 pixels
Display aspect ratio : 2.35:1
Frame rate mode : Constant
Frame rate : 24.000 FPS
Color space : YUV
Chroma subsampling : 4:2:0
Bit depth : 8 bits
Scan type : Progressive
Bits/(Pixel*Frame) : 0.110
Stream size : 609 MiB (86%)
Title : www.MovCr.com
Writing library : x264 core 148 r2744 b97ae06
Encoding settings : cabac=1 / ref=3 / deblock=1:0:0 / analyse=0x3:0x113 / me=hex / subme=7 / psy=1 / psy_rd=1.00:0.00 / mixed_ref=1 / me_range=16 / chroma_me=1 / trellis=1 / 8x8dct=1 / cqm=0 / deadzone=21,11 / fast_pskip=1 / chroma_qp_offset=-2 / threads=10 / lookahead_threads=1 / sliced_threads=0 / nr=0 / decimate=1 / interlaced=0 / bluray_compat=0 / constrained_intra=0 / bframes=3 / b_pyramid=2 / b_adapt=1 / b_bias=0 / direct=1 / weightb=1 / open_gop=0 / weightp=2 / keyint=240 / keyint_min=24 / scenecut=40 / intra_refresh=0 / rc_lookahead=40 / rc=2pass / mbtree=1 / bitrate=592 / ratetol=1.0 / qcomp=0.60 / qpmin=0 / qpmax=69 / qpstep=4 / cplxblur=20.0 / qblur=0.5 / vbv_maxrate=300000 / vbv_bufsize=300000 / nal_hrd=none / filler=0 / ip_ratio=1.40 / aq=1:1.00
Language : English
Default : Yes
Forced : No

Audio
ID : 2
Format : MPEG Audio
Format version : Version 1
Format profile : Layer 3
Format settings : Joint stereo / MS Stereo
Codec ID : A_MPEG/L3
Codec ID/Hint : MP3
Duration : 2 h 23 min
Bit rate mode : Constant
Bit rate : 96.0 kb/s
Channel(s) : 2 channels
Sampling rate : 48.0 kHz
Frame rate : 41.667 FPS (1152 SPF)
Compression mode : Lossy
Stream size : 98.7 MiB (14%)
Title : www.MovCr.com
Language : English
Default : Yes
Forced : No







Files:

  • [MovCr.com] - Thamizh Padam 2 (2018) Tamil - HDRip - x264 - 700MB - Mp3 - ESubs - MovCr.mkv (709.1 MB)

There are currently no comments. Feel free to leave one :)

Code:

  • udp://tracker.openbittorrent.com:80/announce
  • udp://tracker.opentrackr.org:1337/announce
  • udp://tracker.coppersurfer.tk:6969/announce
  • udp://tracker.opentrackr.org:1337/announce
  • udp://tracker.leechers-paradise.org:6969/announce
  • udp://9.rarbg.to:2800/announce
  • udp://eddie4.nl:6969/announce
  • udp://9.rarbg.to:2800/announce
  • udp://tracker.doko.moe:6969/announce
  • udp://thetracker.org:80/announce
  • udp://bt.xxx-tracker.com:2710/announce
  • udp://tracker.vanitycore.co:6969/announce
  • udp://tracker.tiny-vps.com:6969/announce
  • udp://tracker.leechers-paradise.org:6969/announce
  • udp://tracker.opentrackr.org:1337/announce
  • udp://tracker.coppersurfer.tk:6969/announce
  • udp://open.stealth.si:80/announce
  • udp://inferno.demonoid.pw:3418/announce
  • udp://retracker.lanta-net.ru:2710/announce
  • udp://peerfect.org:6969/announce
  • udp://tracker.swateam.org.uk:2710/announce