Watch now! | Tanwarin Sukkhapisit | First Blood

Young Adult 2011 720p BluRay x264 Dual Audio [Hindi 2.0 - English...

  • Category Movies
  • Type Dubs/Dual Audio
  • Language Hindi
  • Total size 752.5 MB
  • Uploaded By moviezworldz
  • Downloads 965
  • Last checked 2 days ago
  • Date uploaded 1 week ago
  • Seeders 17
  • Leechers 9

Young Adult

ComedyDramaRomance

A divorced writer from the Midwest returns to her hometown to reconnect with an old flame, who's now married with a family.

Infohash : 66E4BE870392EE110802CD8B69F83CA5719C015E





General
Format : Matroska
Format version : Version 4 / Version 2
File size : 753 MiB
Duration : 1 h 33 min
Overall bit rate : 1 123 kb/s

Video
ID : 2
Format : AVC
Format/Info : Advanced Video Codec
Format profile : [email protected]
Format settings : CABAC / 5 Ref Frames
Format settings, CABAC : Yes
Format settings, RefFrames : 5 frames
Codec ID : V_MPEG4/ISO/AVC
Duration : 1 h 33 min
Bit rate : 835 kb/s
Width : 1 280 pixels
Height : 720 pixels
Display aspect ratio : 16:9
Frame rate mode : Constant
Frame rate : 23.976 (24000/1001) FPS
Color space : YUV
Chroma subsampling : 4:2:0
Bit depth : 8 bits
Scan type : Progressive
Bits/(Pixel*Frame) : 0.038
Stream size : 558 MiB (74%)
Writing library : x264 core 120 r2164 da19765
Default : Yes
Forced : No

Audio #1
ID : 1
Format : AAC
Format/Info : Advanced Audio Codec
Format profile : LC
Codec ID : A_AAC-2
Duration : 1 h 33 min
Bit rate : 224 kb/s
Channel(s) : 2 channels
Channel positions : Front: L R
Sampling rate : 48.0 kHz
Frame rate : 46.875 FPS (1024 SPF)
Compression mode : Lossy
Stream size : 150 MiB (20%)
Language : Hindi
Default : Yes
Forced : No

Audio #2
ID : 3
Format : AAC
Format/Info : Advanced Audio Codec
Format profile : HE-AAC / LC
Format settings : Explicit
Codec ID : A_AAC-2
Duration : 1 h 33 min
Bit rate : 64.0 kb/s
Channel(s) : 2 channels
Channel positions : Front: L R
Sampling rate : 48.0 kHz / 24.0 kHz
Frame rate : 23.438 FPS (1024 SPF)
Compression mode : Lossy
Stream size : 42.9 MiB (6%)
Language : English
Default : No
Forced : No

Text
ID : 4
Format : UTF-8
Codec ID : S_TEXT/UTF8
Codec ID/Info : UTF-8 Plain Text
Duration : 1 h 28 min
Bit rate : 56 b/s
Count of elements : 1089
Stream size : 36.2 KiB (0%)
Default : Yes
Forced : No


Click To Enlarge Image








Files:

Young Adult 2011 720p BluRay x264 Dual Audio [Hindi 2.0 - English 2.0] ESub [MW]
  • Young Adult 2011 720p BluRay x264 Dual Audio [Hindi 2.0 - English 2.0] ESub [MW].mkv (752.5 MB)

There are currently no comments. Feel free to leave one :)

Code:

  • udp://tracker.coppersurfer.tk:6969/announce
  • udp://tracker.pirateparty.gr:6969/announce
  • udp://tracker.coppersurfer.tk:6969/announce
  • udp://tracker.leechers-paradise.org:6969/announce
  • udp://eddie4.nl:6969/announce
  • udp://tracker.tiny-vps.com:6969/announce
  • udp://9.rarbg.me:2800/announce
  • udp://9.rarbg.to:2720/announce
  • udp://public.popcorn-tracker.org:6969/announce
  • udp://open.stealth.si:80/announce
  • udp://tracker.vanitycore.co:6969/announce
  • udp://tracker.opentrackr.org:1337/announce
  • udp://bt.firebit.co.uk:6969/announce
  • udp://shadowshq.yi.org:6969/announce