watch online extreme rules 2012 - 4/29/2012 | 萨布丽娜的惊心冒险 Chilling Adventures of Sabrina S01E08 720p-官方... | Cerita-Cerita Didi and Friends (2017)

Parmanu - The Story Of Pokhran (2018) Untouched 1080p WEB-DL Hind...

  • Category Movies
  • Type Bollywood
  • Language Hindi
  • Total size 2.7 GB
  • Uploaded By ImKing
  • Downloads 21969
  • Last checked 2 weeks ago
  • Date uploaded 3 weeks ago
  • Seeders 199
  • Leechers 92

Parmanu: The Story of Pokhran

Drama

A film based on India's nuclear bomb tests in 1998.

Infohash : F1C515845A4A0F5C2F6970A94475845581F7DD7E

Parmanu - The Story Of Pokhran (2018) Untouched 1080p WEB-DL Hindi x264 AAC ~ KartiKing [EXCLUSIVE]







INFO :-

Special Thanks To ~ Punisher

http://nfomation.net/download/1532425362/p_KartiKing.txt

Mediainfo :-

Parmanu - The Story Of Pokhran (2018) Untouched 1080p WEB-DL x264 AAC Hindi KartiKing.mkv
Format                      : Matroska
Format version              : Version 4 / Version 2
File size                   : 2.65 GiB
Duration                    : 2 h 4 min
Overall bit rate            : 3 052 kb/s

Video
ID                          : 1
Format                      : AVC
Format/Info                 : Advanced Video Codec
Format profile              : [email protected]
Format settings             : CABAC / 4 Ref Frames
Format settings, CABAC      : Yes
Format settings, ReFrames   : 4 frames
Codec ID                    : V_MPEG4/ISO/AVC
Duration                    : 2 h 4 min
Bit rate                    : 3 000 kb/s
Width                       : 1 920 pixels
Height                      : 1 080 pixels
Display aspect ratio        : 16:9
Frame rate mode             : Variable
Frame rate                  : 24.819 FPS
Color space                 : YUV
Chroma subsampling          : 4:2:0
Bit depth                   : 8 bits
Scan type                   : Progressive
Bits/(Pixel*Frame)          : 0.058
Stream size                 : 2.59 GiB (98%)
Default                     : Yes
Forced                      : No

Audio
ID                          : 2
Format                      : AAC
Format/Info                 : Advanced Audio Codec
Format profile              : LC
Codec ID                    : A_AAC-2
Duration                    : 2 h 4 min
Bit rate                    : 64.3 kb/s
Channel(s)                  : 2 channels
Channel positions           : Front: L R
Sampling rate               : 48.0 kHz
Frame rate                  : 46.875 FPS (1024 SPF)
Compression mode            : Lossy
Delay relative to video     : -80 ms
Stream size                 : 57.2 MiB (2%)
Default                     : Yes
Forced                      : No




SCREENSHOTS :-







KartiKing





Files:

Parmanu The Story Of Pokhran (2018) Untouched 1080p WEB-DL Hindi KartiKing
  • Parmanu - The Story Of Pokhran (2018) Untouched 1080p WEB-DL x264 AAC Hindi KartiKing.mkv (2.7 GB)
  • Mediainfo.txt (2.6 KB)
  • [SAMPLE] Parmanu - The Story Of Pokhran (2018) KartiKing [EXCLUSIVE].mkv (20.7 MB)

Comments

Code:

  • udp://tracker.coppersurfer.tk:6969/announce
  • udp://tracker.open-internet.nl:6969/announce
  • udp://exodus.desync.com:6969/announce
  • udp://tracker.opentrackr.org:1337/announce
  • udp://tracker.internetwarriors.net:1337/announce
  • udp://9.rarbg.to:2710/announce
  • udp://public.popcorn-tracker.org:6969/announce
  • udp://tracker.vanitycore.co:6969/announce
  • udp://mgtracker.org:6969/announce
  • udp://tracker.tiny-vps.com:6969/announce
  • udp://tracker.cypherpunks.ru:6969/announce
  • udp://tracker.torrent.eu.org:451/announce
  • udp://thetracker.org:80/announce
  • udp://retracker.lanta-net.ru:2710/announce
  • udp://open.stealth.si:80/announce
  • udp://bt.xxx-tracker.com:2710/announce
  • http://tracker.city9x.com:2710/announce
  • http://retracker.telecom.by:80/announce
  • udp://tracker.acg.gg:2710/announce
  • udp://torr.ws:2710/announce
Sitemap