Trẫm Không Phải Là Đại Minh Tinh | Transgression (2014) Neue link: 2016/09/21 Views: 8280 Länge: 100 min IMDB rating: 4.5 Uploaded: 2016/09/21 Transgression 2014 | CorelDRAW Graphics Suite X7 v17.1.0.572.

Escape Plan 2 Hades (2018) 720p [Hindi (Cleaned) - English 2.0] H...

  • Category Movies
  • Type Dubs/Dual Audio
  • Language Russian
  • Total size 942.3 MB
  • Uploaded By shmasti
  • Downloads 1601
  • Last checked 4 weeks ago
  • Date uploaded 1 month ago
  • Seeders 22
  • Leechers 12

Escape Plan 2: Hades

CrimeActionThriller

A sequel to the 2013 film about prison security expert Ray Breslin, who uses his skills to test out the reliability of maximum security prisons.

Infohash : 7C28B9B8772453BC31A12B17EC9B9D4FF19C1F84



General
Complete name : Escape Plan 2 Hades (2018) 720p [Hindi (Cleaned) - English 2.0] HDRip x264 AAC ESub by Full4movies.mkv
Format : Matroska
Format version : Version 4 / Version 2
File size : 942 MiB
Duration : 1 h 33 min
Overall bit rate : 1 407 kb/s
Movie name : www.Full4movies.co
Encoded date : UTC 2018-07-12 08:47:24
Writing application : mkvmerge v8.1.0 ('Psychedelic Postcard') 32bit
Writing library : libebml v1.3.1 + libmatroska v1.4.2

Video
ID : 1
Format : AVC
Format/Info : Advanced Video Codec
Format profile : [email protected]
Format settings, CABAC : Yes
Format settings, RefFrames : 4 frames
Codec ID : V_MPEG4/ISO/AVC
Duration : 1 h 33 min
Bit rate : 1 200 kb/s
Width : 1 280 pixels
Height : 536 pixels
Display aspect ratio : 2.40:1
Frame rate mode : Constant
Frame rate : 23.976 (24000/1001) FPS
Color space : YUV
Chroma subsampling : 4:2:0
Bit depth : 8 bits
Scan type : Progressive
Bits/(Pixel*Frame) : 0.073
Stream size : 791 MiB (84%)
Writing library : x264 core 155 r2901 7d0ff22
Default : Yes
Forced : No
Color range : Limited
Color primaries : BT.709
Transfer characteristics : BT.709
Matrix coefficients : BT.709

Audio #1
ID : 2
Format : AAC
Format/Info : Advanced Audio Codec
Format profile : LC
Codec ID : A_AAC
Duration : 1 h 33 min
Bit rate : 128 kb/s
Channel(s) : 2 channels
Channel positions : Front: L R
Sampling rate : 48.0 kHz
Frame rate : 46.875 FPS (1024 SPF)
Compression mode : Lossy
Stream size : 85.7 MiB (9%)
Language : Hindi
Default : Yes
Forced : Yes

Audio #2
ID : 3
Format : AAC
Format/Info : Advanced Audio Codec
Format profile : HE-AAC / LC
Codec ID : A_AAC
Duration : 1 h 33 min
Bit rate : 96.0 kb/s
Channel(s) : 2 channels
Channel positions : Front: L R
Sampling rate : 48.0 kHz / 24.0 kHz
Frame rate : 23.438 FPS (1024 SPF)
Compression mode : Lossy
Stream size : 63.4 MiB (7%)
Language : English
Default : No
Forced : No

Text
ID : 4
Format : UTF-8
Codec ID : S_TEXT/UTF8
Codec ID/Info : UTF-8 Plain Text
Duration : 1 h 24 min
Bit rate : 45 b/s
Count of elements : 848
Stream size : 28.2 KiB (0%)
Language : English
Default : Yes
Forced : No

Screen Shoots

Files:

  • Escape Plan 2 Hades (2018) 720p [Hindi (Cleaned) - English 2.0] HDRip x264 AAC ESub by Full4movies.mkv (942.3 MB)

There are currently no comments. Feel free to leave one :)

Code:

  • udp://tracker.coppersurfer.tk:6969/announce
  • udp://tracker.opentrackr.org:1337/announce
  • udp://9.rarbg.me:2710/announce
  • udp://tracker.torrent.eu.org:451/announce
  • udp://open.stealth.si:80/announce
  • udp://public.popcorn-tracker.org:6969/announce
  • udp://p4p.arenabg.ch:1337/announce
  • udp://tracker.zer0day.to:1337/announce
  • udp://tracker.pirateparty.gr:6969/announce
  • udp://tracker.leechers-paradise.org:6969/announce
  • udp://tracker.tiny-vps.com:6969/announce
  • udp://bt.firebit.co.uk:6969/announce
  • udp://inferno.demonoid.pw:3397/announce
  • udp://shadowshq.yi.org:6969/announce
  • udp://9.rarbg.to:2780/announce