Mamma Mia! 2 / Mamma Mia! Here We Go Again (2018) WEB-DL 1080p от TeamHD | iTunes | OfficeSuite : Office + PDF Editor v9.4.12682 modded apk | Zanki x 99

Dracula in Love (2018) 720p HDRip x264 AAC by Full4movies

  • Category Movies
  • Type HD
  • Language English
  • Total size 753.6 MB
  • Uploaded By shmasti
  • Downloads 323
  • Last checked 1 month ago
  • Date uploaded 1 month ago
  • Seeders 9
  • Leechers 1

Dracula in Love

HorrorFantasy

Leila, a lonely young soul spends the night partying with her friends Nancy, David and Nash in a warehouse. As the boys drink up and smoke pot all social barriers between the sexes crumble. Leila, hit on by both men, hides away from them. Alone she senses there is someone else who wants her and certainly he is not of this world. A 200 year old Dracula escapes from a crate and reveals himself to Leila and tells her that she is his lost love. For him to live again and be with her, she must bring him the blood of her friends to drink and make love to him. Hypnotized by his sexual powers, Leila does as she is told. Leila and a handsome young Dracula get away and live happily ever after.

Infohash : AFB516F7CD17D2D7D6501CE295F45859275811DE



General
Complete name : Dracula in Love (2018) 720p HDRip x264 AAC by Full4movies.mkv
Format : Matroska
Format version : Version 4 / Version 2
File size : 754 MiB
Duration : 1 h 23 min
Overall bit rate : 1 266 kb/s
Encoded date : UTC 2018-07-11 15:32:33
Writing application : mkvmerge v8.1.0 ('Psychedelic Postcard') 32bit
Writing library : libebml v1.3.1 + libmatroska v1.4.2

Video
ID : 1
Format : AVC
Format/Info : Advanced Video Codec
Format profile : [email protected]
Format settings, CABAC : Yes
Format settings, RefFrames : 4 frames
Codec ID : V_MPEG4/ISO/AVC
Duration : 1 h 23 min
Bit rate : 1 200 kb/s
Width : 1 280 pixels
Height : 528 pixels
Display aspect ratio : 2.40:1
Frame rate mode : Variable
Frame rate : 23.976 FPS
Color space : YUV
Chroma subsampling : 4:2:0
Bit depth : 8 bits
Scan type : Progressive
Bits/(Pixel*Frame) : 0.074
Stream size : 714 MiB (95%)
Writing library : x264 core 155 r2901 7d0ff22
Default : Yes
Forced : No
Color range : Limited
Color primaries : BT.601 NTSC
Transfer characteristics : BT.709
Matrix coefficients : BT.601

Audio
ID : 2
Format : AAC
Format/Info : Advanced Audio Codec
Format profile : LC
Codec ID : A_AAC
Duration : 1 h 23 min
Bit rate : 64.3 kb/s
Channel(s) : 2 channels
Channel positions : Front: L R
Sampling rate : 48.0 kHz
Frame rate : 46.875 FPS (1024 SPF)
Compression mode : Lossy
Delay relative to video : -21 ms
Stream size : 38.3 MiB (5%)
Language : English
Default : Yes
Forced : No

Screen Shoots

Files:

  • Dracula in Love (2018) 720p HDRip x264 AAC by Full4movies.mkv (753.6 MB)

There are currently no comments. Feel free to leave one :)

Code:

  • udp://tracker.coppersurfer.tk:6969/announce
  • udp://tracker.opentrackr.org:1337/announce
  • udp://9.rarbg.me:2710/announce
  • udp://tracker.torrent.eu.org:451/announce
  • udp://open.stealth.si:80/announce
  • udp://public.popcorn-tracker.org:6969/announce
  • udp://p4p.arenabg.ch:1337/announce
  • udp://tracker.zer0day.to:1337/announce
  • udp://tracker.pirateparty.gr:6969/announce
  • udp://tracker.leechers-paradise.org:6969/announce
  • udp://tracker.tiny-vps.com:6969/announce
  • udp://bt.firebit.co.uk:6969/announce
  • udp://inferno.demonoid.pw:3397/announce
  • udp://shadowshq.yi.org:6969/announce
  • udp://9.rarbg.to:2780/announce