Gone: Viaje a lo Inesperado | 1x14 Te Recuerdo | La Increible historia del Niño de Piedra

Before Someone Gets Hurt (2018) HDRip x264 AAC by Full4movies

  • Category Movies
  • Type HD
  • Language English
  • Total size 447.8 MB
  • Uploaded By shmasti
  • Downloads 31
  • Last checked 1 month ago
  • Date uploaded 1 month ago
  • Seeders 2
  • Leechers 1

Infohash : BF085C61CD6EA05EE335508FA152A24408B4CD6C



General
Complete name                  : Before Someone Gets Hurt (2018) HDRip x264 AAC by Full4movies.mkv
Format                         : Matroska
Format version                 : Version 4 / Version 2
File size                      : 448 MiB
Duration                       : 1 h 25 min
Overall bit rate               : 732 kb/s
Movie name                     : www.Full4movies.co
Encoded date                   : UTC 2018-07-11 15:31:52
Writing application            : mkvmerge v8.1.0 ('Psychedelic Postcard') 32bit
Writing library                : libebml v1.3.1 + libmatroska v1.4.2

Video
ID                             : 1
Format                         : AVC
Format/Info                    : Advanced Video Codec
Format profile                 : [email protected]
Format settings, CABAC         : Yes
Format settings, RefFrames     : 5 frames
Codec ID                       : V_MPEG4/ISO/AVC
Duration                       : 1 h 25 min
Bit rate                       : 640 kb/s
Width                          : 720 pixels
Height                         : 400 pixels
Display aspect ratio           : 16:9
Frame rate mode                : Constant
Frame rate                     : 23.976 FPS
Color space                    : YUV
Chroma subsampling             : 4:2:0
Bit depth                      : 8 bits
Scan type                      : Progressive
Bits/(Pixel*Frame)             : 0.093
Stream size                    : 387 MiB (86%)
Writing library                : x264 core 148 r2643 5c65704
Default                        : Yes
Forced                         : No

Audio
ID                             : 2
Format                         : AAC
Format/Info                    : Advanced Audio Codec
Format profile                 : LC
Codec ID                       : A_AAC
Duration                       : 1 h 25 min
Bit rate                       : 96.0 kb/s
Channel(s)                     : 2 channels
Channel positions              : Front: L R
Sampling rate                  : 48.0 kHz
Frame rate                     : 46.875 FPS (1024 SPF)
Compression mode               : Lossy
Delay relative to video        : -21 ms
Stream size                    : 59.3 MiB (13%)
Language                       : English
Default                        : Yes
Forced                         : No

Screen Shoots

Files:

  • Before Someone Gets Hurt (2018) HDRip x264 AAC by Full4movies.mkv (447.8 MB)

There are currently no comments. Feel free to leave one :)

Code:

  • udp://tracker.coppersurfer.tk:6969/announce
  • udp://tracker.opentrackr.org:1337/announce
  • udp://9.rarbg.me:2710/announce
  • udp://tracker.torrent.eu.org:451/announce
  • udp://open.stealth.si:80/announce
  • udp://public.popcorn-tracker.org:6969/announce
  • udp://p4p.arenabg.ch:1337/announce
  • udp://tracker.zer0day.to:1337/announce
  • udp://tracker.pirateparty.gr:6969/announce
  • udp://tracker.leechers-paradise.org:6969/announce
  • udp://tracker.tiny-vps.com:6969/announce
  • udp://bt.firebit.co.uk:6969/announce
  • udp://inferno.demonoid.pw:3397/announce
  • udp://shadowshq.yi.org:6969/announce
  • udp://9.rarbg.to:2780/announce