Ant-Man (2015) 1080p BluRay Hindi DD 5.1Ch - Eng DTS 5.1Ch ~ MAN...

  • Category Movies
  • Type Dubs/Dual Audio
  • Language English
  • Total size 8.5 GB
  • Uploaded By THEGABRU
  • Downloads 180
  • Last checked 1 month ago
  • Date uploaded 1 month ago
  • Seeders 1
  • Leechers 5

Ant-Man

ActionAdventureScience Fiction

Armed with the astonishing ability to shrink in scale but increase in strength, con-man Scott Lang must embrace his inner-hero and help his mentor, Dr. Hank Pym, protect the secret behind his spectacular Ant-Man suit from a new generation of towering threats. Against seemingly insurmountable obstacles, Pym and Lang must plan and pull off a heist that will save the world.

Infohash : 0BD458510E14B452F5A0EBABF741C65B9241247F

Ant-Man (2015) 1080p BluRay Hindi DD 5.1Ch - Eng DTS 5.1Ch ~ MANN KT




General

Format : Matroska
Format version : Version 4 / Version 2
File size : 8.45 GiB
Duration : 1 h 57 min
Overall bit rate : 10.3 Mb/s
Movie name : MANN KT


Video
ID : 1
Format : AVC
Format/Info : Advanced Video Codec
Format profile : [email protected]
Format settings, CABAC : Yes
Format settings, ReFrames : 4 frames
Codec ID : V_MPEG4/ISO/AVC
Duration : 1 h 57 min
Bit rate : 9 181 kb/s
Width : 1 920 pixels
Height : 1 040 pixels
Display aspect ratio : 1.85:1
Frame rate mode : Constant
Frame rate : 23.976 FPS
Color space : YUV
Chroma subsampling : 4:2:0
Bit depth : 8 bits
Scan type : Progressive
Bits/(Pixel*Frame) : 0.192
Stream size : 7.51 GiB (89%)
Title : MANN KT
Language : English
Default : Yes
Forced : No

Audio #1
ID : 2
Format : AC-3
Format/Info : Audio Coding 3
Mode extension : CM (complete main)
Format settings, Endianness : Big
Codec ID : A_AC3
Duration : 1 h 57 min
Bit rate mode : Constant
Bit rate : 384 kb/s
Channel(s) : 6 channels
Channel positions : Front: L C R, Side: L R, LFE
Sampling rate : 48.0 kHz
Frame rate : 31.250 FPS (1536 spf)
Bit depth : 16 bits
Compression mode : Lossy
Stream size : 322 MiB (4%)
Title : MANN KT
Language : Hindi
Default : Yes
Forced : No

Audio #2
ID : 3
Format : DTS
Format/Info : Digital Theater Systems
Mode : 16
Format settings, Endianness : Big
Codec ID : A_DTS
Duration : 1 h 57 min
Bit rate mode : Constant
Bit rate : 768 kb/s
Channel(s) : 6 channels
Channel positions : Front: L C R, Side: L R, LFE
Sampling rate : 48.0 kHz
Frame rate : 93.750 FPS (512 spf)
Bit depth : 16 bits
Compression mode : Lossy
Stream size : 643 MiB (7%)
Title : MANN KT
Language : English
Default : No
Forced : No
SCREENSHOT



ENJOY

Files:

Ant-Man (2015) Movie
  • Ant-Man (2015).mkv (8.5 GB)
Sample
  • Sample.mkv (56.2 MB)
Screens
  • Ant-Man (2015).jpg (10.1 MB)

Comments

Code:

  • udp://tracker.coppersurfer.tk:6969/announce
  • udp://tracker.pirateparty.gr:6969/announce
  • udp://shadowshq.yi.org:6969/announce
  • udp://eddie4.nl:6969/announce
  • udp://tracker.leechers-paradise.org:6969/announce
  • udp://tracker.opentrackr.org:1337/announce
  • udp://p4p.arenabg.ch:1337/announce
  • udp://p4p.arenabg.com:1337/announce
  • udp://9.rarbg.me:2710/announce
  • udp://9.rarbg.to:2710/announce
  • udp://tracker.coppersurfer.tk:80/announce
  • udp://tracker.vanitycore.co:6969/announce
  • udp://public.popcorn-tracker.org:6969/announce
  • udp://tracker.opentrackr.org:1337/announce
  • udp://tracker.zer0day.to:1337/announce
SitemapFandango (D.O.D Remix) | Совёныш | Suspense