HD The Lord of the Rings: The Two Towers (2002) | Petit Paysan Stream Complet | Movie Trailer predator

Angrezi Mein Kehte Hain (2018) HIndi - 720p - UNTOUCHED - WEB-HD ...

  • Category Movies
  • Type Bollywood
  • Language Hindi
  • Total size 6.9 GB
  • Uploaded By MovCr
  • Downloads 187
  • Last checked 1 month ago
  • Date uploaded 1 month ago
  • Seeders 3
  • Leechers 0

Infohash : 307CB38CAD41F7A283B003379246714003A2CDA0

http://movcr.com

Angrezi Mein Kehte Hain (2018) HIndi - 720p - UNTOUCHED - WEB-HD - x264 - 7.2GB - MovCr - ExClusive


Video
ID : 1
Format : AVC
Format/Info : Advanced Video Codec
Format profile : [email protected]
Format settings : CABAC / 1 Ref Frames
Format settings, CABAC : Yes
Format settings, ReFrames : 1 frame
Codec ID : avc1
Codec ID/Info : Advanced Video Coding
Duration : 1 h 48 min
Bit rate mode : Constant
Bit rate : 9 000 kb/s / 9 000 kb/s
Width : 1 280 pixels
Height : 720 pixels
Display aspect ratio : 16:9
Frame rate mode : Variable
Frame rate : 25.000 FPS
Minimum frame rate : 12.500 FPS
Maximum frame rate : 25.000 FPS
Color space : YUV
Chroma subsampling : 4:2:0
Bit depth : 8 bits
Scan type : Progressive
Bits/(Pixel*Frame) : 0.391
Stream size : 6.81 GiB (99%)
Writing library : x264 core 148 r2694bm 3b70645
Encoding settings : cabac=1 / ref=1 / deblock=1:0:0 / analyse=0x3:0x113 / me=hex / subme=2 / psy=1 / psy_rd=1.00:0.00 / mixed_ref=0 / me_range=16 / chroma_me=1 / trellis=0 / 8x8dct=1 / cqm=0 / deadzone=21,11 / fast_pskip=1 / chroma_qp_offset=0 / threads=8 / lookahead_threads=8 / sliced_threads=1 / slices=8 / nr=0 / decimate=1 / interlaced=0 / bluray_compat=0 / constrained_intra=0 / bframes=0 / weightp=1 / keyint=250 / keyint_min=25 / scenecut=40 / intra_refresh=0 / rc_lookahead=0 / rc=cbr / mbtree=0 / bitrate=9000 / ratetol=1.0 / qcomp=0.60 / qpmin=0 / qpmax=69 / qpstep=4 / vbv_maxrate=9000 / vbv_bufsize=9000 / nal_hrd=cbr / filler=1 / ip_ratio=1.40 / aq=1:1.00
Encoded date : UTC 2018-07-11 18:37:05
Tagged date : UTC 2018-07-11 20:25:21

Audio
ID : 2
Format : AAC
Format/Info : Advanced Audio Codec
Format profile : LC
Codec ID : mp4a-40-2
Duration : 1 h 48 min
Bit rate mode : Variable
Bit rate : 128 kb/s
Channel(s) : 2 channels
Channel positions : Front: L R
Sampling rate : 44.1 kHz
Frame rate : 43.066 FPS (1024 SPF)
Compression mode : Lossy
Stream size : 99.1 MiB (1%)
Encoded date : UTC 2018-07-11 18:37:05
Tagged date : UTC 2018-07-11 20:25:21





Files:

  • [MovCr.com] - Angrezi Mein Kehte Hain (2018) HIndi - 720p - UNTOUCHED - WEB-HD - x264 - 7.2GB - MovCr - ExClusive.mp4 (6.9 GB)

There are currently no comments. Feel free to leave one :)

Code:

  • udp://tracker.openbittorrent.com:80/announce
  • udp://tracker.opentrackr.org:1337/announce
  • udp://tracker.coppersurfer.tk:6969/announce
  • udp://tracker.opentrackr.org:1337/announce
  • udp://tracker.leechers-paradise.org:6969/announce
  • udp://9.rarbg.to:2750/announce
  • udp://eddie4.nl:6969/announce
  • udp://9.rarbg.to:2750/announce
  • udp://tracker.doko.moe:6969/announce
  • udp://thetracker.org:80/announce
  • udp://bt.xxx-tracker.com:2710/announce
  • udp://tracker.vanitycore.co:6969/announce
  • udp://tracker.tiny-vps.com:6969/announce
  • udp://tracker.leechers-paradise.org:6969/announce
  • udp://tracker.opentrackr.org:1337/announce
  • udp://tracker.coppersurfer.tk:6969/announce
  • udp://open.stealth.si:80/announce
  • udp://inferno.demonoid.pw:3418/announce
  • udp://retracker.lanta-net.ru:2710/announce
  • udp://peerfect.org:6969/announce
  • udp://tracker.swateam.org.uk:2710/announce