Captain America The First Avenger (2011) 1080p BluRay Hindi DD 5....

  • Category Movies
  • Type Dubs/Dual Audio
  • Language English
  • Total size 8.3 GB
  • Uploaded By THEGABRU
  • Downloads 248
  • Last checked 1 month ago
  • Date uploaded 1 month ago
  • Seeders 4
  • Leechers 3

Captain America: The First Avenger

ActionAdventureScience Fiction

Predominantly set during World War II, Steve Rogers is a sickly man from Brooklyn who's transformed into super-soldier Captain America to aid in the war effort. Rogers must stop the Red Skull – Adolf Hitler's ruthless head of weaponry, and the leader of an organization that intends to use a mysterious device of untold powers for world domination.

Infohash : FBEEB3FD43AB9C0C6A35A1DB3450F238F656252C

Captain America The First Avenger (2011) 1080p BluRay Hindi DD 5.1Ch - Eng DD 5.1Ch ~ MANN KT



General

Format                      : Matroska
Format version              : Version 4 / Version 2
File size                   : 8.21 GiB
Duration                    : 2 h 4 min
Overall bit rate            : 9 463 kb/s
Movie name                  : MANN KT


Video
ID                          : 1
Format                      : AVC
Format/Info                 : Advanced Video Codec
Format profile              : [email protected]
Format settings, CABAC      : Yes
Format settings, ReFrames   : 5 frames
Codec ID                    : V_MPEG4/ISO/AVC
Duration                    : 2 h 4 min
Bit rate                    : 8 569 kb/s
Width                       : 1 920 pixels
Height                      : 816 pixels
Display aspect ratio        : 2.35:1
Frame rate mode             : Constant
Frame rate                  : 23.976 (24000/1001) FPS
Color space                 : YUV
Chroma subsampling          : 4:2:0
Bit depth                   : 8 bits
Scan type                   : Progressive
Bits/(Pixel*Frame)          : 0.228
Stream size                 : 7.43 GiB (91%)
Title                       : MANN KT
Language                    : English
Default                     : Yes
Forced                      : No

Audio #1
ID                          : 2
Format                      : AC-3
Format/Info                 : Audio Coding 3
Mode extension              : CM (complete main)
Format settings, Endianness : Big
Codec ID                    : A_AC3
Duration                    : 2 h 4 min
Bit rate mode               : Constant
Bit rate                    : 448 kb/s
Channel(s)                  : 6 channels
Channel positions           : Front: L C R, Side: L R, LFE
Sampling rate               : 48.0 kHz
Frame rate                  : 31.250 FPS (1536 spf)
Bit depth                   : 16 bits
Compression mode            : Lossy
Stream size                 : 396 MiB (5%)
Title                       : MANN KT
Language                    : Hindi
Default                     : Yes
Forced                      : No

Audio #2
ID                          : 3
Format                      : AC-3
Format/Info                 : Audio Coding 3
Mode extension              : CM (complete main)
Format settings, Endianness : Big
Codec ID                    : A_AC3
Duration                    : 2 h 4 min
Bit rate mode               : Constant
Bit rate                    : 448 kb/s
Channel(s)                  : 6 channels
Channel positions           : Front: L C R, Side: L R, LFE
Sampling rate               : 48.0 kHz
Frame rate                  : 31.250 FPS (1536 spf)
Bit depth                   : 16 bits
Compression mode            : Lossy
Stream size                 : 398 MiB (5%)
Title                       : MANN KT
Language                    : English
Default                     : No
Forced                      : No

SCREENSHOTS



ENJOY

Files:

Captain America The First Avenger (2011) Movie
  • Captain America The First Avenger (2011).mkv (8.2 GB)
Sample
  • Sample.mkv (71.2 MB)
Screens
  • Captain America The First Avenger (2011).jpg (9.5 MB)

Comments

Code:

  • udp://tracker.coppersurfer.tk:6969/announce
  • udp://tracker.pirateparty.gr:6969/announce
  • udp://shadowshq.yi.org:6969/announce
  • udp://eddie4.nl:6969/announce
  • udp://tracker.leechers-paradise.org:6969/announce
  • udp://tracker.opentrackr.org:1337/announce
  • udp://p4p.arenabg.ch:1337/announce
  • udp://p4p.arenabg.com:1337/announce
  • udp://9.rarbg.me:2710/announce
  • udp://9.rarbg.to:2710/announce
  • udp://tracker.coppersurfer.tk:80/announce
  • udp://tracker.vanitycore.co:6969/announce
  • udp://public.popcorn-tracker.org:6969/announce
  • udp://tracker.opentrackr.org:1337/announce
  • udp://tracker.zer0day.to:1337/announce
SitemapPelículas 2000 | I Need 100% Original Text | Legends of Tomorrow 4×05