Skewed and Reviewed – June 2016 | Disney Interactive | Nymphomaniac

Empire (2015) Season 4 S04 (1080p AMZN WEB-DL x265 HEVC 10bit AAC...

  • Category TV
  • Type HEVC/x265
  • Language English
  • Total size 13.3 GB
  • Uploaded By Vyndros
  • Downloads 183
  • Last checked 2 months ago
  • Date uploaded 2 months ago
  • Seeders 3
  • Leechers 10

Infohash : D03C158F30378C27FDF8BC776B3A3F7B094C1FDD








Media Information

Code:

General
Format : Matroska
Format version : Version 4 / Version 2
File size : 736 MiB
Duration : 44 min 44 s
Overall bit rate : 2 298 kb/s
Encoded date : UTC 2018-05-25 23:20:12
Writing application : mkvmerge v20.0.0 ('I Am The Sun') 64-bit
Writing library : libebml v1.3.5 + libmatroska v1.4.8
Writing frontend : StaxRip v1.7.0.6

Video
ID : 1
Format : HEVC
Format/Info : High Efficiency Video Coding
Format profile : Main [email protected]@Main
Codec ID : V_MPEGH/ISO/HEVC
Duration : 44 min 44 s
Bit rate : 1 848 kb/s
Width : 1 920 pixels
Height : 1 080 pixels
Display aspect ratio : 16:9
Frame rate mode : Constant
Frame rate : 23.976 (24000/1001) FPS
Color space : YUV
Chroma subsampling : 4:2:0
Bit depth : 10 bits
Bits/(Pixel*Frame) : 0.037
Stream size : 591 MiB (80%)
Writing library : x265 2.8+1-478bfe2b7673:[Windows][GCC 7.3.0][64 bit] 10bit
Encoding settings : cpuid=1111039 / frame-threads=3 / numa-pools=12 / wpp / no-pmode / no-pme / no-psnr / ssim / log-level=2 / input-csp=1 / input-res=1920x1080 / interlace=0 / total-frames=64373 / level-idc=0 / high-tier=1 / uhd-bd=0 / ref=3 / no-allow-non-conformance / no-repeat-headers / annexb / no-aud / no-hrd / info / hash=0 / no-temporal-layers / open-gop / min-keyint=23 / keyint=250 / gop-lookahead=0 / bframes=8 / b-adapt=2 / b-pyramid / bframe-bias=0 / rc-lookahead=50 / lookahead-slices=6 / scenecut=40 / radl=0 / no-intra-refresh / ctu=64 / min-cu-size=8 / no-rect / no-amp / max-tu-size=32 / tu-inter-depth=1 / tu-intra-depth=1 / limit-tu=0 / rdoq-level=0 / dynamic-rd=0.00 / no-ssim-rd / signhide / no-tskip / nr-intra=0 / nr-inter=0 / no-constrained-intra / no-strong-intra-smoothing / max-merge=3 / limit-refs=3 / no-limit-modes / me=3 / subme=3 / merange=57 / temporal-mvp / weightp / no-weightb / no-analyze-src-pics / deblock=0:0 / sao / no-sao-non-deblock / rd=3 / no-early-skip / no-rskip / no-fast-intra / no-tskip-fast / no-cu-lossless / no-b-intra / no-splitrd-skip / rdpenalty=0 / psy-rd=1.50 / psy-rdoq=0.00 / no-rd-refine / no-lossless / cbqpoffs=0 / crqpoffs=0 / rc=crf / crf=21.0 / qcomp=0.60 / qpstep=4 / stats-write=0 / stats-read=0 / ipratio=1.40 / pbratio=1.30 / aq-mode=3 / aq-strength=0.80 / cutree / zone-count=0 / no-strict-cbr / qg-size=32 / no-rc-grain / qpmax=69 / qpmin=0 / no-const-vbv / sar=0 / overscan=0 / videoformat=5 / range=0 / colorprim=2 / transfer=2 / colormatrix=2 / chromaloc=0 / display-window=0 / max-cll=0,0 / min-luma=0 / max-luma=1023 / log2-max-poc-lsb=8 / vui-timing-info / vui-hrd-info / slices=1 / no-opt-qp-pps / no-opt-ref-list-length-pps / no-multi-pass-opt-rps / scenecut-bias=0.05 / no-opt-cu-delta-qp / no-aq-motion / no-hdr / no-hdr-opt / no-dhdr10-opt / no-idr-recovery-sei / analysis-reuse-level=5 / scale-factor=0 / refine-intra=0 / refine-inter=0 / refine-mv=0 / no-limit-sao / ctu-info=0 / no-lowpass-dct / refine-mv-type=0 / copy-pic=1 / max-ausize-factor=1.0 / no-dynamic-refine / no-single-sei
Default : Yes
Forced : No

Audio
ID : 2
Format : AAC
Format/Info : Advanced Audio Codec
Format profile : LC
Codec ID : A_AAC
Duration : 44 min 44 s
Bit rate : 448 kb/s
Channel(s) : 6 channels
Channel positions : Front: L C R, Side: L R, LFE
Sampling rate : 48.0 kHz
Frame rate : 46.875 FPS (1024 spf)
Compression mode : Lossy
Stream size : 143 MiB (20%)
Language : English
Default : Yes
Forced : Yes

Subtitle
ID : 3
Format : UTF-8
Codec ID : S_TEXT/UTF8
Codec ID/Info : UTF-8 Plain Text
Duration : 44 min 42 s
Bit rate : 74 b/s
Count of elements : 811
Stream size : 24.4 KiB (0%)
Language : English
Default : No
Forced : No



Source Information

Code:

Release:
Amazon WEB-DL


Files:

Empire (2015) Season 4 S04 (1080p AMZN WEB-DL x265 HEVC 10bit AAC 5.1 Vyndros)
  • Empire.S04E01.Noble.Memory.(1).1080p.10bit.AMZN.WEB-DL.AAC5.1.HEVC-Vyndros.mkv (1.5 GB)
  • Empire.S04E02.Full.Circle.1080p.10bit.AMZN.WEB-DL.AAC5.1.HEVC-Vyndros.mkv (582.2 MB)
  • Empire.S04E03.Evil.Manners.1080p.10bit.AMZN.WEB-DL.AAC5.1.HEVC-Vyndros.mkv (614.1 MB)
  • Empire.S04E04.Bleeding.War.1080p.10bit.AMZN.WEB-DL.AAC5.1.HEVC-Vyndros.mkv (751.3 MB)
  • Empire.S04E05.The.Fool.1080p.10bit.AMZN.WEB-DL.AAC5.1.HEVC-Vyndros.mkv (635.2 MB)
  • Empire.S04E06.Fortune.Be.Not.Crost.1080p.10bit.AMZN.WEB-DL.AAC5.1.HEVC-Vyndros.mkv (603.5 MB)
  • Empire.S04E07.The.Lady.Doth.Protest.1080p.10bit.AMZN.WEB-DL.AAC5.1.HEVC-Vyndros.mkv (640.7 MB)
  • Empire.S04E08.Cupid.Painted.Blind.1080p.10bit.AMZN.WEB-DL.AAC5.1.HEVC-Vyndros.mkv (727.8 MB)
  • Empire.S04E09.Slave.To.Memory.1080p.10bit.AMZN.WEB-DL.AAC5.1.HEVC-Vyndros.mkv (729.2 MB)
  • Empire.S04E10.Birds.in.the.Cage.1080p.10bit.AMZN.WEB-DL.AAC5.1.HEVC-Vyndros.mkv (742.2 MB)
  • Empire.S04E11.Without.Apology.1080p.10bit.AMZN.WEB-DL.AAC5.1.HEVC-Vyndros.mkv (753.0 MB)
  • Empire.S04E12.Sweet.Sorrow.1080p.10bit.AMZN.WEB-DL.AAC5.1.HEVC-Vyndros.mkv (625.5 MB)
  • Empire.S04E13.Of.Hardiness.is.Mother.1080p.10bit.AMZN.WEB-DL.AAC5.1.HEVC-Vyndros.mkv (661.8 MB)
  • Empire.S04E14.False.Face.1080p.10bit.AMZN.WEB-DL.AAC5.1.HEVC-Vyndros.mkv (832.4 MB)
  • Empire.S04E15.A.Lean.and.Hungry.Look.1080p.10bit.AMZN.WEB-DL.AAC5.1.HEVC-Vyndros.mkv (755.1 MB)
  • Empire.S04E16.Fair.Terms.1080p.10bit.AMZN.WEB-DL.AAC5.1.HEVC-Vyndros.mkv (821.8 MB)
  • Empire.S04E17.Bloody.Noses.and.Crack'd.Crowns.1080p.10bit.AMZN.WEB-DL.AAC5.1.HEVC-Vyndros.mkv (892.0 MB)
  • Empire.S04E18.The.Empire.Unpossess'd.1080p.10bit.AMZN.WEB-DL.AAC5.1.HEVC-Vyndros.mkv (735.6 MB)

Comments

Code:

  • udp://tracker.coppersurfer.tk:6969/announce
  • udp://tracker.zer0day.to:1337/announce
  • udp://tracker.opentrackr.org:1337/announce
  • udp://tracker.torrent.eu.org:451/announce
  • udp://tracker.ilibr.org:6969/announce
  • udp://tracker.leechers-paradise.org:6969/announce
  • udp://p4p.arenabg.com:1337/announce
  • udp://tracker.internetwarriors.net:1337/announce
Sitemap