Watch movie | God of Martial Arts: chapter 2.3 | Buddha Cafe

Raid 2018 720p Esub HD 5.1 Hindi GOPISAHI

  • Category Movies
  • Type Dubs/Dual Audio
  • Language English
  • Total size 468.5 MB
  • Uploaded By PENDUDESI
  • Downloads 39
  • Last checked 34 minutes ago
  • Date uploaded 34 minutes ago
  • Seeders 0
  • Leechers 0

Infohash : DCF29B38F88BE8D0175F205315C2261B4C01746D

http://www.gopisahi.pw

Format : Matroska
Format version : Version 4 / Version 2
File size : 469 MiB
Duration : 1 h 55 min
Overall bit rate : 568 kb/s
Movie name : Raid 2018 GOPISAHI

Video
Format : HEVC
Duration : 1 h 55 min
Bit rate : 507 kb/s
Width : 1 280 pixels
Height : 536 pixels
Display aspect ratio : 2.40:1
Frame rate mode : Constant
Frame rate : 25.000 FPS
Color space : YUV
Chroma subsampling : 4:2:0
Bit depth : 8 bits
Bits/(Pixel*Frame) : 0.030
Stream size : 418 MiB (89%)
Title : GOPISAHI
Writing library : x265 2.6:[Windows][GCC 7.2.0][64 bit] 8bit+10bit+12bit

Audio
Format : AAC
Duration : 1 h 55 min
Bit rate : 59.0 kb/s
Channel(s) : 6 channels
Channel positions : Front: L C R, Side: L R, LFE
Sampling rate : 48.0 kHz
Frame rate : 46.875 FPS (1024 SPF)
Compression mode : Lossy
Stream size : 48.6 MiB (10%)
Title : GOPISAHI
Language : Hindi

Text
Language : English


Files:

  • Raid 2018 720p Esub HD 5.1 Hindi GOPISAHI.mkv (468.5 MB)

There are currently no comments. Feel free to leave one :)

Code:

  • udp://9.rarbg.com:2740/announce
  • udp://9.rarbg.to:2800/announce
  • udp://inferno.demonoid.pw:3391/announce
  • udp://tracker.leechers-paradise.org:6969/announce
  • udp://tracker.coppersurfer.tk:80/announce
  • udp://tracker.coppersurfer.tk:6969/announce
  • udp://tracker.opentrackr.org:1337/announce
  • udp://p4p.arenabg.com:1337/announce
  • UDP://EDDIE4.NL:6969/ANNOUNCE
  • udp://tracker.pirateparty.gr:6969/announce
  • udp://tracker.tiny-vps.com:6969/announce
  • udp://public.popcorn-tracker.org:6969/announce
  • udp://tracker.torrent.eu.org:451/announce