Preacher HDTV | Wagamama High Spec | Download ringtone

Padmaavat (2018) Telugu HDRip x264 AAC +ESubs by india4movie

  • Category Movies
  • Type h.264/x264
  • Language Telugu
  • Total size 698.4 MB
  • Uploaded By shmasti
  • Downloads 174
  • Last checked 2 months ago
  • Date uploaded 2 months ago
  • Seeders 4
  • Leechers 2

Infohash : 9EE5A0863457629073AB5BBA0C1FFC93758E73F2



General
Complete name : Padmaavat (2018) Telugu HDRip x264 AAC +ESubs by india4movie.mkv
Format : Matroska
Format version : Version 4 / Version 2
File size : 698 MiB
Duration : 2 h 42 min
Overall bit rate : 599 kb/s
Encoded date : UTC 2018-05-28 05:28:43
Writing application : mkvmerge v8.1.0 ('Psychedelic Postcard') 32bit
Writing library : libebml v1.3.1 + libmatroska v1.4.2

Video
ID : 1
Format : AVC
Format/Info : Advanced Video Codec
Format profile : [email protected]
Format settings, CABAC : Yes
Format settings, RefFrames : 4 frames
Codec ID : V_MPEG4/ISO/AVC
Duration : 2 h 42 min
Bit rate : 469 kb/s
Width : 720 pixels
Height : 304 pixels
Display aspect ratio : 2.35:1
Frame rate mode : Constant
Frame rate : 23.976 (23976/1000) FPS
Color space : YUV
Chroma subsampling : 4:2:0
Bit depth : 8 bits
Scan type : Progressive
Bits/(Pixel*Frame) : 0.089
Stream size : 547 MiB (78%)
Writing library : x264 core 112
Language : English
Default : Yes
Forced : No
Color range : Limited
Color primaries : BT.709
Transfer characteristics : BT.709
Matrix coefficients : BT.709

Audio
ID : 2
Format : AAC
Format/Info : Advanced Audio Codec
Format profile : LC
Codec ID : A_AAC
Duration : 2 h 42 min
Bit rate : 128 kb/s
Channel(s) : 2 channels
Channel positions : Front: L R
Sampling rate : 44.1 kHz
Frame rate : 43.066 FPS (1024 SPF)
Compression mode : Lossy
Stream size : 149 MiB (21%)
Language : Telugu
Default : Yes
Forced : No

Text
ID : 3
Format : UTF-8
Codec ID : S_TEXT/UTF8
Codec ID/Info : UTF-8 Plain Text
Duration : 2 h 32 min
Bit rate : 38 b/s
Count of elements : 1244
Stream size : 43.3 KiB (0%)
Language : English
Default : Yes
Forced : No

Screen Shoots

Files:

  • Padmaavat (2018) Telugu HDRip x264 AAC +ESubs by india4movie.mkv (698.4 MB)

There are currently no comments. Feel free to leave one :)

Code:

  • udp://tracker.coppersurfer.tk:6969/announce
  • udp://tracker.opentrackr.org:1337/announce
  • udp://9.rarbg.me:2710/announce
  • udp://tracker.torrent.eu.org:451/announce
  • udp://open.stealth.si:80/announce
  • udp://public.popcorn-tracker.org:6969/announce
  • udp://p4p.arenabg.ch:1337/announce
  • udp://tracker.zer0day.to:1337/announce
  • udp://tracker.pirateparty.gr:6969/announce
  • udp://tracker.leechers-paradise.org:6969/announce
  • udp://tracker.tiny-vps.com:6969/announce
  • udp://bt.firebit.co.uk:6969/announce
  • udp://inferno.demonoid.pw:3397/announce
  • udp://shadowshq.yi.org:6969/announce
  • udp://9.rarbg.to:2780/announce