Thám Tử Lừng Danh Conan chap 381 | Star Wars Rebels Onlin | November 2015

Happy Gilmore (1996) BluRay 720p x264 [Dual Audio] [Hindi DD 5.1 ...

  • Category Movies
  • Type Dubs/Dual Audio
  • Language Hindi
  • Total size 726.7 MB
  • Uploaded By Katyayan
  • Downloads 886
  • Last checked 2 months ago
  • Date uploaded 2 months ago
  • Seeders 4
  • Leechers 3

Happy Gilmore

ComedySport

Failed hockey player-turned-golf whiz Happy Gilmore -- whose unconventional approach and antics on the grass courts the ire of rival Shooter McGavin -- is determined to win a PGA tournament so he can save his granny's house with the prize money. Meanwhile, an attractive tour publicist tries to soften Happy's image.

Infohash : BE8F0DFDE754DA72EB329C65B2C62083554C3996

Happy Gilmore (1996) BluRay 720p x264 [Dual Audio] [Hindi DD 5.1 - Eng] AAC Esub -=!Katyayan!=-



Quote:


-====================Credit====================-
:::::::::::::::;::::> Video ---- Yify
:::::::::::::::;::::> Audio ---- Hammer



Quote:

Format                                   : Matroska
Format version                           : Version 4 / Version 2
File size                                : 726 MiB
Duration                                 : 1 h 31 min
Overall bit rate                         : 1 105 kb/s
Movie name                               : Happy Gilmore (1996) BluRay 720p x264 [Dual Audio] [Hindi DD 5.1 - Eng] AAC Esub -=!Katyayan!=-

Video
ID                                       : 1
Format                                   : AVC
Format/Info                              : Advanced Video Codec
Format profile                           : [email protected]
Format settings                          : CABAC / 5 Ref Frames
Format settings, CABAC                   : Yes
Format settings, RefFrames               : 5 frames
Codec ID                                 : V_MPEG4/ISO/AVC
Duration                                 : 1 h 31 min
Bit rate                                 : 879 kb/s
Width                                    : 1 280 pixels
Height                                   : 694 pixels
Display aspect ratio                     : 1.85:1
Frame rate mode                          : Constant
Frame rate                               : 23.976 (24000/1001) FPS
Color space                              : YUV
Chroma subsampling                       : 4:2:0
Bit depth                                : 8 bits
Scan type                                : Progressive
Bits/(Pixel*Frame)                       : 0.041
Stream size                              : 577 MiB (79%)
Title                                    : Happy Gilmore (1996) BluRay 720p x264 [Dual Audio] [Hindi DD 5.1 - Eng] AAC Esub -=!Katyayan!=-
Writing library                          : x264 core 114 r1924 08d04a4
Language                                 : English
Default                                  : Yes
Forced                                   : No

Audio #1
ID                                       : 2
Format                                   : AAC
Format/Info                              : Advanced Audio Codec
Format profile                           : HE-AAC / LC
Format settings                          : Explicit
Codec ID                                 : A_AAC-2
Duration                                 : 1 h 31 min
Bit rate                                 : 32.0 kb/s
Channel(s)                               : 2 channels
Channel positions                        : Front: L R
Sampling rate                            : 48.0 kHz / 24.0 kHz
Frame rate                               : 23.438 FPS (1024 SPF)
Compression mode                         : Lossy
Stream size                              : 21.0 MiB (3%)
Title                                    : -=!Katyayan!=-
Language                                 : English
Default                                  : No
Forced                                   : No

Audio #2
ID                                       : 3
Format                                   : AAC
Format/Info                              : Advanced Audio Codec
Format profile                           : LC
Codec ID                                 : A_AAC-2
Duration                                 : 1 h 31 min
Bit rate                                 : 192 kb/s
Channel(s)                               : 6 channels
Channel positions                        : Front: L C R, Side: L R, LFE
Sampling rate                            : 48.0 kHz
Frame rate                               : 46.875 FPS (1024 SPF)
Compression mode                         : Lossy
Delay relative to video                  : 757 ms
Stream size                              : 126 MiB (17%)
Title                                    : -=!Katyayan!=-
Language                                 : Hindi
Default                                  : Yes
Forced                                   : Yes

Text
ID                                       : 4
Format                                   : UTF-8
Codec ID                                 : S_TEXT/UTF8
Codec ID/Info                            : UTF-8 Plain Text
Duration                                 : 1 h 28 min
Bit rate                                 : 63 b/s
Count of elements                        : 1114
Stream size                              : 40.8 KiB (0%)
Title                                    : -=!Katyayan!=-
Language                                 : English
Default                                  : Yes
Forced                                   : Yes






Files:

Happy Gilmore (1996) BluRay 720p x264 [Dual Audio] [Hindi DD 5.1 - Eng] AAC Esub -=!Katyayan!=-
  • Happy Gilmore (1996) BluRay 720p x264 [Dual Audio] [Hindi DD 5.1 - Eng] AAC Esub -=!Katyayan!=-.mkv (726.4 MB)
  • Happy Gilmore (1996) Poster.jpg (197.3 KB)
  • Happy Gilmore (1996) Esub.srt (84.3 KB)

Comments

Code:

  • udp://open.stealth.si:80/announce
  • udp://tracker.coppersurfer.tk:6969/announce
  • udp://182.176.139.129:6969/announce
  • udp://tracker.leechers-paradise.org:6969/announce
  • udp://182.176.139.129:6969/announce
  • udp://tracker.leechers-paradise.org:6969/announce
  • udp://tracker.tiny-vps.com:6969/announce
  • udp://public.popcorn-tracker.org:6969/announce
  • udp://eddie4.nl:6969/announce
  • udp://tracker.coppersurfer.tk:6969/announce
  • udp://5.79.83.193:6969/announce
  • udp://shadowshq.yi.org:6969/announce